1. Este sitio usa cookies. Para continuar usando este sitio, se debe aceptar nuestro uso de cookies. Learn More.

  2. [HIDE] LINKS [/HIDE]

Aviones [BDrip 1080][Ac3 (es-ES);DTS (en-US);Ac3 (LAT)][Animacion][2013] [MULTIHOST]

Tema en 'HD-DVD, HDTV y BluRay.' iniciado por Baalberith, 25 Noviembre 2013.

  1. Baalberith
    Offline

    Baalberith Registrado

    Registrado:
    27 Noviembre 2011
    Mensajes:
    1.150
    Me Gusta recibidos:
    39
    Trofeos:
    48
    [​IMG]

    [​IMG]

    [​IMG] Aviones


    SINOPSIS: Dusty es un avión que sueña con participar en una competición aérea de altos vuelos. Pero Dusty no fue precisamente construido para competir y resulta que... ¡tiene miedo a las alturas! Así que, recurre a un experimentado aviador naval que le ayuda a clasificarse para retar al vigente campeón del circuito de carreras. Dusty demostrará su valor para alcanzar alturas inimaginables y enseñará al mundo lo que hay que hacer para levantar el vuelo. Spin-off de Cars, protagonizado por vehículos aéreos, aunque la productora Pixar no es la responsable del film. (FILMAFFINITY)


    [​IMG]
    CODE, HTML o PHP Insertado:
    Format                                   : Matroska
    Format version                           : Version 4 / Version 2
    File size                                : 9.66 GiB
    Duration                                 : 1h 31mn
    Overall bit rate                         : 15.1 Mbps
    Movie name                               : Aviones 1080 Baalberith
    Encoded date                             : UTC 2013-11-25 16:47:23
    Writing application                      : mkvmerge v6.4.1 ('Omega Point') built on Sep 16 2013 22:05:10
    Writing library                          : libebml v1.3.0 + libmatroska v1.4.1
    
    Video
    ID                                       : 1
    Format                                   : AVC
    Format/Info                              : Advanced Video Codec
    Format profile                           : High@L4.1
    Format settings, CABAC                   : Yes
    Format settings, ReFrames                : 4 frames
    Codec ID                                 : V_MPEG4/ISO/AVC
    Duration                                 : 1h 31mn
    Bit rate                                 : 12.5 Mbps
    Width                                    : 1 920 pixels
    Height                                   : 1 080 pixels
    Display aspect ratio                     : 16:9
    Frame rate                               : 23.976 fps
    Color space                              : YUV
    Chroma subsampling                       : 4:2:0
    Bit depth                                : 8 bits
    Scan type                                : Progressive
    Bits/(Pixel*Frame)                       : 0.251
    Stream size                              : 7.80 GiB (81%)
    Title                                    : Aviones 1080 Baalberith
    Writing library                          : x264 core 140 r2377 1ca7bb9
    Encoding settings                        : cabac=1 / ref=4 / deblock=1:-1:-1 / analyse=0x3:0x133 / me=tesa / subme=11 / psy=1 / psy_rd=1.00:0.00 / mixed_ref=1 / me_range=32 / chroma_me=1 / trellis=2 / 8x8dct=1 / cqm=0 / deadzone=21,11 / fast_pskip=1 / chroma_qp_offset=-2 / threads=12 / lookahead_threads=2 / sliced_threads=0 / nr=0 / decimate=1 / interlaced=0 / bluray_compat=0 / constrained_intra=0 / bframes=8 / b_pyramid=2 / b_adapt=2 / b_bias=0 / direct=3 / weightb=1 / open_gop=0 / weightp=2 / keyint=240 / keyint_min=23 / scenecut=40 / intra_refresh=0 / rc=2pass / mbtree=0 / bitrate=12500 / ratetol=1.0 / qcomp=0.60 / qpmin=10 / qpmax=69 / qpstep=4 / cplxblur=20.0 / qblur=0.5 / ip_ratio=1.40 / pb_ratio=1.30 / aq=2:0.95
    Language                                 : Spanish
    Default                                  : Yes
    Forced                                   : No
    
    Audio #1
    ID                                       : 2
    Format                                   : AC-3
    Format/Info                              : Audio Coding 3
    Mode extension                           : CM (complete main)
    Format settings, Endianness              : Big
    Codec ID                                 : A_AC3
    Duration                                 : 1h 31mn
    Bit rate mode                            : Constant
    Bit rate                                 : 448 Kbps
    Channel(s)                               : 6 channels
    Channel positions                        : Front: L C R, Side: L R, LFE
    Sampling rate                            : 48.0 KHz
    Bit depth                                : 16 bits
    Compression mode                         : Lossy
    Stream size                              : 294 MiB (3%)
    Title                                    : Ac3 5.1@448 kbps
    Language                                 : Spanish
    Default                                  : Yes
    Forced                                   : No
    
    Audio #2
    ID                                       : 3
    Format                                   : DTS
    Format/Info                              : Digital Theater Systems
    Codec ID                                 : A_DTS
    Duration                                 : 1h 31mn
    Bit rate mode                            : Constant
    Bit rate                                 : 1 510 Kbps
    Channel(s)                               : 6 channels
    Channel positions                        : Front: L C R, Side: L R, LFE
    Sampling rate                            : 48.0 KHz
    Bit depth                                : 24 bits
    Compression mode                         : Lossy
    Stream size                              : 989 MiB (10%)
    Title                                    : DTS 5.1@1510 kbps
    Language                                 : English
    Default                                  : No
    Forced                                   : No
    
    Audio #3
    ID                                       : 4
    Format                                   : AC-3
    Format/Info                              : Audio Coding 3
    Mode extension                           : CM (complete main)
    Format settings, Endianness              : Big
    Codec ID                                 : A_AC3
    Duration                                 : 1h 31mn
    Bit rate mode                            : Constant
    Bit rate                                 : 640 Kbps
    Channel(s)                               : 6 channels
    Channel positions                        : Front: L C R, Side: L R, LFE
    Sampling rate                            : 48.0 KHz
    Bit depth                                : 16 bits
    Compression mode                         : Lossy
    Stream size                              : 419 MiB (4%)
    Title                                    : Ac3 5.1@640 kbps LATINO
    Language                                 : Spanish
    Default                                  : No
    Forced                                   : No
    
    Text #1
    ID                                       : 5
    Format                                   : UTF-8
    Codec ID                                 : S_TEXT/UTF8
    Codec ID/Info                            : UTF-8 Plain Text
    Title                                    : Forzados Planos
    Language                                 : Spanish
    Default                                  : No
    Forced                                   : No
    
    Text #2
    ID                                       : 6
    Format                                   : UTF-8
    Codec ID                                 : S_TEXT/UTF8
    Codec ID/Info                            : UTF-8 Plain Text
    Title                                    : Spanish Planos
    Language                                 : Spanish
    Default                                  : No
    Forced                                   : No
    
    Text #3
    ID                                       : 7
    Format                                   : UTF-8
    Codec ID                                 : S_TEXT/UTF8
    Codec ID/Info                            : UTF-8 Plain Text
    Title                                    : English Panos
    Language                                 : English
    Default                                  : No
    Forced                                   : No
    
    Menu
    00:00:00.000                             : en:00:00:00.000
    00:04:41.990                             : en:00:04:41.990
    00:07:23.234                             : en:00:07:23.234
    00:09:04.294                             : en:00:09:04.294
    00:14:38.085                             : en:00:14:38.085
    00:17:30.549                             : en:00:17:30.549
    00:24:58.872                             : en:00:24:58.872
    00:30:10.767                             : en:00:30:10.767
    00:36:28.186                             : en:00:36:28.186
    00:40:37.518                             : en:00:40:37.518
    00:42:51.193                             : en:00:42:51.193
    00:48:07.801                             : en:00:48:07.801
    00:51:37.802                             : en:00:51:37.802
    00:56:22.378                             : en:00:56:22.378
    01:00:06.144                             : en:01:00:06.144
    01:01:59.924                             : en:01:01:59.924
    01:07:05.312                             : en:01:07:05.312
    01:10:13.042                             : en:01:10:13.042
    01:12:27.134                             : en:01:12:27.134
    01:16:26.915                             : en:01:16:26.915
    

    Tamaño:9,66 Gb
    Formato / Contenedor: Matroska
    Video Codec: AVC
    Profile: High@L4.1 Marcos:4
    Resolución: 1920x1080
    Audio 1: Spanish Ac3 448 Kbps 6 channels
    Audio 2: English DTS 1510 Kbps 6 channels
    Audio 3: Latino Ac3 640 Kbps 6 channels
    Subtitulos:Forzados,Spanish,English (Planos)

    Servidor(es) : Rapidgator,DDLStorage,Uploaded.net,Bitshare,Tusfiles,Putlocker*INTERCAMBIABLES.
    Formato Compresión : Comprimido y partido en 21 partes con winrar
    Archivos recuperación : Contiene 3 archivos de recuperación rar (Se abren con winrar)
    Verificación : 1 archivo verificador
    Sample:SI Contiene sample de aprx.100-150mb para ver calidad audio/video/subs,sincronizacion etc.
    Capitulos:SI contiene capitulos.
    Recuperacion:SI, cada archivo consta de un 5% de recuperacion.

    [​IMG]

    PUTLOCKER 100%

    Montaje,sincronizacion-audio-subtitulos: Baalberith

    Descargar Aviones 1080p

    CODE, HTML o PHP Insertado:
    http://c052cfd7.miniurls.co
    CODE, HTML o PHP Insertado:
    http://64dacd26.miniurls.co

    Un saludo.
Temas ya publicados en el foro, da un vistazo! - Buscados por: Aviones [BDrip
Foro Título Fecha
HD-DVD, HDTV y BluRay. Aviones 3D SBS [BDrip 1080][Ac3 (es-ES);DTS (en-US);Ac3 (LAT)][Animacion][2013] [MULTIHOST] 25 Noviembre 2013
HD-DVD, HDTV y BluRay. Aviones 3D SBS-A/A [BDrip 1080][Ac3 (es-LAT);DTS (en-US)][Aventuras][2013] [MULTIHOST] 16 Noviembre 2013
HD-DVD, HDTV y BluRay. Aviones [Animacion][2013][MicroHD 1080p][AC3 5.1][Castellano Ingles] 14 Julio 2014
HD-DVD, HDTV y BluRay. Aviones / Planes (Disney) [1080p HD Latino-Ingles Dual] [2013] [ULD] 6 Marzo 2014
HD-DVD, HDTV y BluRay. Aviones [2013][BRRip][1080p][LATiNO/INGLES] 2 Noviembre 2013
HD-DVD, HDTV y BluRay. Noé 3D SBS [BDrip 1080][Ac3 (es-ES);DTS (en-US)][Fantástico][2014] [MULTIHOST] Ayer a las 17:27

Compartir esta página